doctor who the big bang theory s12e08 greys anatomy ettv FORMULA 1 2018 big bang theory español star trek discovery Outlander Van helsing The Predator ethd bbc crazy rich asians The good place arrow español the flash 2018 movies z nation ray donovan venom Hindi dtone mission impossible fallout mvgroup 2018 ita arrow the walking dead formula wwe fgt SUPERNATURAL Vikings Game of thrones etmovies ddr young sheldon Ethd Outlaw King saturday Night live 0 UFC Titans 1080p YIFY The Big Bang Theory hitman 2 ita 2018 swat blindspot the meg ITA south park Supergirl bohemian rhapsody UFC Fight Night 139 xxx great british bake off s09e10 etrg formula 1 incredibles 2 star trek mr robot ita evo ncis blue my mind american horror story the walking dead s09e05 brooklyn nine nine season big bang theory it jimi hendrix 2018 
Warning! Do not Download Without a VPN!
Your IP Address is .   Location is
Download and surf securely, stream unlimited and protect your personal data!
We strongly recommend using SpyOFF VPN!
Become Anonymous with SpyOFF
ETTV Recommended TV Shows
Supergirl.S04E05.HDTV.x264-SVA[ettv] torrent
The.Last.Ship.S05E10.WEBRip.x264-TBS[ettv] torrent
The.Walking.Dead.S09E06.HDTV.x264-SVA[ettv] torrent
Charmed.2018.S01E05.WEB.h264-TBS[ettv] torrent

ETTV Recommended Xvid
Dead.Men.2018.BRRip.XviD.AC3-EVO[EtMovies] torrent
Backfire.2018.HC.HDRip.XviD.AC3-EVO[EtMovies] torrent
Tiger.2018.HDRip.XviD.AC3-EVO[EtMovies] torrent
Searching.2018.READNFO.HDRip.XviD.AC3-EVO[EtMovies] torrent

ETTV Recommended HD
Tiger.2018.1080p.NF.WEB-DL.DD5.1.H264-CMRG[EtHD] torrent
Crazy.Rich.Asians.2018.1080p.BluRay.x264.DTS-HD.MA.5.1-HDChina[EtHD] torrent
Penance.2018.1080p.AMZN.WEB-DL.DDP2.0.H264-CMRG[EtHD] torrent
Searching.2018.READNFO.1080p.WEB-DL.H264.AC3-EVO[EtHD] torrent

ETTV Recommended UHD
BlacKkKlansman.2018.UHD.2160p.Bluray.x265.HDR.DDP.7.1-DTOne torrent
Air.Force.One.1997.Multi.UHD.2160p.Bluray.x265.HDR.DTS..5.1-DTOne torrent
Cliffhanger.1993.Multi.2160p.UHD.BluRay.x265.HDR..DTS-5.11-DTOne torrent
Law.Abiding.Citizen.2009.Multi.UHD.2160p.Bluray.x265.HDR.DD.5.1-DTOne torrent

ETTV Recommended Cam
The.House.with.a.Clock.in.Its.Walls.2018.NEW HDCAM.XViD.AC3-ETRG torrent
Night School 2018 NEW 720p HD-TS-NiGGA torrent
Overlord 2018 720p HDCAM-1XBET torrent
The Grinch 2018.HDCAM.XViD.AC3-ETRG torrent

ETTV Recommended Foreign
Thugs.Of.Hindostan.(2018).1-3.Desi.Pre.Rip.x264.AAC.2.0-DTOne.Exclusive torrent
Natsamrat (2016) Marathi 1080p NF WEB-DL DD 5.1 H.264-TeamSunny[EtHD] torrent
The Meg 2018 BRRip Dual Audio [Hindi 5.1+English] 720p x264 ESub - mkvCinemas torrent
Mitron (2018) Hindi 1080p WEB-Rip x264 AC3 DD5.1 - ESUB ~ Ranvijay torrent

Social


Download Torrent "Mayans M.C. - S01E10 (1080p WEB-DL x265 HEVC 10bit AAC 5.1 ImE) [QxR]"

IMDB Details
Description:

N/A

Genre:

N/A

Download Torrent (Magnet)
Download Torrent (File)
Seeds: 134
Leechers: 26
Completed: 915 
Last Checked: 11-11-2018 06:07:40


Loading...
Details
Title:Mayans M.C. - S01E10 (1080p WEB-DL x265 HEVC 10bit AAC 5.1 ImE) [QxR]
Description:


http://www.imdb.com/title/tt5715524/


Encode Screenshots (Click for full quality)





Media Information
General
Format                                   : Matroska
Format version                           : Version 4 / Version 2
File size                                : 1.02 GiB
Duration                                 : 57 min 12 s
Overall bit rate                         : 2 548 kb/s
Encoded date                             : UTC 2018-11-09 05:51:46
Writing application                      : mkvmerge v20.0.0 ('I Am The Sun') 64-bit
Writing library                          : libebml v1.3.5 + libmatroska v1.4.8
Writing frontend                         : StaxRip v1.7.0.6

Video
ID                                       : 1
Format                                   : HEVC
Format/Info                              : High Efficiency Video Coding
Format profile                           : Main [email protected]@Main
Codec ID                                 : V_MPEGH/ISO/HEVC
Duration                                 : 57 min 12 s
Bit rate                                 : 2 144 kb/s
Width                                    : 1 920 pixels
Height                                   : 1 080 pixels
Display aspect ratio                     : 16:9
Frame rate mode                          : Constant
Frame rate                               : 23.976 (24000/1001) FPS
Color space                              : YUV
Chroma subsampling                       : 4:2:0
Bit depth                                : 10 bits
Bits/(Pixel*Frame)                       : 0.043
Stream size                              : 877 MiB (84%)
Title                                    : Encoded by: ImEverlasting
Writing library                          : x265 2.8+66-88ee12651e30:[Windows][MSVC 1915][64 bit] 10bit
Encoding settings                        : cpuid=1111039 / frame-threads=2 / numa-pools=4 / wpp / no-pmode / no-pme / no-psnr / no-ssim / log-level=2 / input-csp=1 / input-res=1920x1080 / interlace=0 / total-frames=82292 / level-idc=0 / high-tier=1 / uhd-bd=0 / ref=4 / no-allow-non-conformance / no-repeat-headers / annexb / no-aud / no-hrd / info / hash=0 / no-temporal-layers / open-gop / min-keyint=23 / keyint=250 / gop-lookahead=0 / bframes=8 / b-adapt=2 / b-pyramid / bframe-bias=0 / rc-lookahead=30 / lookahead-slices=4 / scenecut=40 / radl=0 / no-intra-refresh / ctu=64 / min-cu-size=8 / rect / no-amp / max-tu-size=32 / tu-inter-depth=1 / tu-intra-depth=1 / limit-tu=0 / rdoq-level=2 / dynamic-rd=0.00 / no-ssim-rd / signhide / no-tskip / nr-intra=0 / nr-inter=0 / no-constrained-intra / strong-intra-smoothing / max-merge=3 / limit-refs=3 / limit-modes / me=3 / subme=5 / merange=57 / temporal-mvp / weightp / no-weightb / no-analyze-src-pics / deblock=0:0 / sao / no-sao-non-deblock / rd=4 / no-early-skip / rskip / no-fast-intra / no-tskip-fast / no-cu-lossless / no-b-intra / no-splitrd-skip / rdpenalty=0 / psy-rd=2.00 / psy-rdoq=1.00 / no-rd-refine / no-lossless / cbqpoffs=0 / crqpoffs=0 / rc=crf / crf=22.0 / qcomp=0.60 / qpstep=4 / stats-write=0 / stats-read=0 / ipratio=1.40 / pbratio=1.30 / aq-mode=1 / aq-strength=1.00 / cutree / zone-count=0 / no-strict-cbr / qg-size=32 / no-rc-grain / qpmax=69 / qpmin=0 / no-const-vbv / sar=0 / overscan=0 / videoformat=5 / range=0 / colorprim=2 / transfer=2 / colormatrix=2 / chromaloc=0 / display-window=0 / max-cll=0,0 / min-luma=0 / max-luma=1023 / log2-max-poc-lsb=8 / vui-timing-info / vui-hrd-info / slices=1 / no-opt-qp-pps / no-opt-ref-list-length-pps / no-multi-pass-opt-rps / scenecut-bias=0.05 / no-opt-cu-delta-qp / no-aq-motion / no-hdr / no-hdr-opt / no-dhdr10-opt / no-idr-recovery-sei / analysis-reuse-level=5 / scale-factor=0 / refine-intra=0 / refine-inter=0 / refine-mv=0 / no-limit-sao / ctu-info=0 / no-lowpass-dct / refine-mv-type=0 / copy-pic=1 / max-ausize-factor=1.0 / no-dynamic-refine / no-single-sei
Default                                  : Yes
Forced                                   : No

Audio
ID                                       : 2
Format                                   : AAC
Format/Info                              : Advanced Audio Codec
Format profile                           : LC
Codec ID                                 : A_AAC
Duration                                 : 57 min 12 s
Bit rate                                 : 401 kb/s
Channel(s)                               : 6 channels
Channel positions                        : Front: L C R, Side: L R, LFE
Sampling rate                            : 48.0 kHz
Frame rate                               : 46.875 FPS (1024 spf)
Compression mode                         : Lossy
Delay relative to video                  : 20 ms
Stream size                              : 164 MiB (16%)
Language                                 : English
Default                                  : No
Forced                                   : No

Subtitle
ID                                       : 3
Format                                   : UTF-8
Codec ID                                 : S_TEXT/UTF8
Codec ID/Info                            : UTF-8 Plain Text
Duration                                 : 57 min 11 s
Bit rate                                 : 43 b/s
Count of elements                        : 885
Stream size                              : 18.1 KiB (0%)
Language                                 : English
Default                                  : No
Forced                                   : No

Source Information
Release : Mayans.M.C.S01E10.Cuervo+Tz'ikb'uul.1080p.WEB-DL.h264.8bit.EAC3.5.1-METCON.mkv (2.67 GB)



Note from QxR:
Whilst we are happy for our releases to be re-posted on a platform we aren't on, please do so in an 'as-is' format. We ask that you do not create a new torrent, include all descriptions you see above including the QxR logo, tags, notes and screenshots. If you'd like to become a permanent poster on a website we don't post to, feel free to get in contact with a QxR member.
Category:TV > HEVC/x265
Lang:English  English
Total Size:1.02 GB
Info Hash:a221bcf83c0eee2c5af4c3f70b06c11de7fa3033
Added By:QxR
Date Added:11-11-2018 06:07:36

Files

File List: 
 File Size
Mayans M.C. - S01E10 - Cuervo Tz'ikb'uul (1080p WEB-DL x265 ImE).mkv1.02 GB



Loading...
Comments

There are currently no comments. Be the first one to write something !

Disclaimer: None of the files shown here are actually hosted or transmitted by this server. The links are provided solely by this site's users. The site moderation is also a service provided by the site's users. The administrator of this site (ettv.tv) cannot be held responsible for what its users post, or any other actions of its users. You may not use this site to distribute or download any material when you do not have the legal rights to do so. It is your own responsibility to adhere to these terms.

SitemapEmeril Lagasse | Ranma 1-2 s1e17-20 [DVD5 - ITA JAP] [TntVillage] | 500 Kapseln Omega 3 Fischöl á 1000mg Lachsöl Fisch-ÖL - Beste Qualität!